Skip to main content

Old Union Live at Exit/In on 2006-05-19




Old Union
2006-05-19
Exit/In
Nashville, TN.


Source: Schoeps MK4V > KC5 > CMC6 > SD722 @ 24/96
Location: ORTF, DFC, ~15' from stage, 7' stand
Transfer: 722 > HDD > WaveLab 5.01a (Re-Sample/MBit+ Dither/Fades) > CDWave > FLAC (6)
Taped, Transferred & Seeded by Martin Medley.


Set:


01. Last Chance
02. Drifters Prayer
03. Showtime
04. The Road Home
05. Music Row
06. Broken Man
07. Motels And Highways
08. What Do You Expect


[All acoustic set; Opened for Ballhog!]


shntool info:

length expanded size cdr WAVE problems filename
8:58.16 94940876 --- -- ---xx oldunion2005-05-1901.flac
5:44.59 60820412 --- -- ---xx oldunion2005-05-1902.flac
5:16.35 55824764 --- -- ---xx oldunion2005-05-1903.flac
6:35.46 69786236 --- -- ---xx oldunion2005-05-1904.flac
5:06.45 54084284 --- -- ---xx oldunion2005-05-1905.flac
4:44.31 50170556 --- -- ---xx oldunion2005-05-1906.flac
8:13.38 87054620 --- -- ---xx oldunion2005-05-1907.flac
8:30.22 90015788 --- -- ---xx oldunion2005-05-1908.flac
53:09.67 562697536 B (totals for 8 files, 0.6009 overall compression ratio)


FLAC Fingerprint:

oldunion2005-05-1901.flac:0f4278e540bf53b3bd9a40d6fcafbd69
oldunion2005-05-1902.flac:359bebd0374456407c955876ff89d005
oldunion2005-05-1903.flac:b90063f9561900e5f03d664ea17cbdf1
oldunion2005-05-1904.flac:6cc4bd7c03ecb6fed0478d8dedd7f2d3
oldunion2005-05-1905.flac:c90d9115e03869d79727f38a59442e94
oldunion2005-05-1906.flac:ed9ea9c7c978d9199ca2966f141ca55e
oldunion2005-05-1907.flac:757642efc78f9aad926554b713d720cd
oldunion2005-05-1908.flac:1d809ace1a72280d947a95213804a556


Collection OldUnion
Band/Artist Old Union
Date May 19, 2006
Venue Exit/In
Location Nashville, TN.

Source Schoeps MK4V > KC5 > CMC6 > SD722 @ 24/96
Lineage 722 > HDD > WaveLab 5.01a (Re-Sample/MBit+ Dither/Fades) > CDWave > FLAC (6)
Taped by Martin Medley
Transferred by Martin Medley


Reviews

Reviewer: lastcall - - June 27, 2006
Subject: Who's got the key's?
Bring alot a' cash cuz theres BEER! The beer's free but somebody's gonna need some bail$$ These guys bring the party to the archive. Rack-em up!
Reviewer: HOOPNV - - June 26, 2006
Subject: SETLIST
1. Last Chance
2. Drifters Prayer with ??? from Ball Hog on percussion
3. Showtime w/ Spotty on dobro
4. The Road Home w/ Spotty on dobro
5. Music Row w/ Jaime, Toby and Randy from Ball Hog
6. Possible name is Broken Man...I believe this is a Ball Hog song w/ Randy and most of Ball Hog
7. Motels and Highways (new version - AWESOME)
8.What Did You Expect

Nice night of music. Acoustic Old Union - what a treat. The new version of Motels is great!
PEOPLE ALSO FOUND
Old Union
by Old Union
747
0
3
( 3 reviews )
Source: Schoeps MK4V > KC5 > CMC6 > SD722 @ 24/96
Old Union
by Old Union
3,202
0
2
( 2 reviews )
Source: Schoeps MK4V > KC5 > CMC6 > SD722 @ 24/96
Old Union
by Old Union
2,057
0
1
( 1 reviews )
Source: SBD > Sound Devices 722 @ 24bit/96kHz
Outformation
by Outformation
679
1
0
Source: Schoeps mk41v(dina)~>kc5~>m222~>nt222 + mk21(nos)~>kcy~>vms5u~>744t (24/48)
Outformation
by Outformation
613
0
0
Source: Schoeps MK41V(DINA) > KC5 > M222 > NT222 + MK21/MK8 (M/S)> KCY > VMS5U > 744t (24/48)
Outformation
by Outformation
239
0
0
Source: Schoeps MK4V > KC5 > CMC6 > Sonosax SX-M2 > Sound Devices 722 (24bit/48kHz)
Outformation
by Outformation
1,251
0
0
Source: Schoeps mk2s(nos)~>kc5~>m222~>nt222 + SBD(Soundcraft Europa Series)~>744t + [C-link]mk4v(dina)~>kc5~>cmc6~>v2~>722 (24/96)
Outformation
by Outformation
660
0
0
Source: Schoeps MK4V > KC5 > CMC6 > Sound Devices 722 (24bit/48kHz)
Outformation
by Outformation
1,219
0
0
Source: Schoeps MK21 (NOS) > KC5 > M222 > NT222 + SBD (Yamaha ML24/FX14) > Sound Devices 744t @ 24bit/48kHz
Outformation
by Outformation
1,259
1
0
Source: Schoeps mk41v(dina)~>kc5~>m222~>nt222 + mk21(nos)~>kcy~>vms5u~>744t (24/48)